In 1963, Toei Company, Ltd. released the Japanese animated adventure comedy-drama Doggie March (わんわん忠臣蔁). The movie was directed by Akira Daikubara. The movie came out the same year as Wolf Boy Ken, another Toei Animation movie. In-betweens were Hayao Miyazaki’s first job as an apprentice during the production phase. He worked on them while he was still unknown. Toei put out the movie in Japan on December 21, 1963.

General

  • Complete name                            : Wan Wan Chuushingura – Toei (1963) 1080p Ac3 Jpn HardSub Ita by SAN-MIRCrew.mkv
  • Format                                   : Matroska
  • Format version                           : Version 2
  • File size                                : 1.60 GiB
  • Duration                                 : 1h 21mn
  • Overall bit rate                         : 2 804 Kbps
  • Movie name                               : MIRCrew
  • Encoded date                             : UTC 2023-12-27 17:10:51
  • Writing application                      : mkvmerge v5.4.0 (‘Piper’) built on Mar 10 2012 13:34:39
  • Writing library                          : Lavf58.20.100
  • Video
    • ID                                       : 1
    • Format                                   : AVC
    • Format/Info                              : Advanced Video Codec
    • Format profile                           : [email protected]
    • Format settings, CABAC                   : Yes
    • Format settings, ReFrames                : 4 frames
    • Codec ID                                 : V_MPEG4/ISO/AVC
    • Duration                                 : 1h 21mn
    • Bit rate                                 : 2 600 Kbps
    • Width                                    : 1 920 pixels
    • Height                                   : 800 pixels
    • Display aspect ratio                     : 2.40:1
    • Frame rate mode                          : Variable
    • Frame rate                               : 23.976 fps
    • Color space                              : YUV
    • Chroma subsampling                       : 4:2:0
    • Bit depth                                : 8 bits
    • Scan type                                : Progressive
    • Bits/(Pixel*Frame)                       : 0.071
    • Stream size                              : 1.46 GiB (91%)
    • Title                                    : MIRCrew
    • Writing library                          : x264 core 157 r2935 545de2f
    • Encoding settings                        : cabac=1 / ref=2 / deblock=1:0:0
    • Language                                 : Italian
    • Default                                  : Yes
    • Forced                                   : No
    • DURATION                                 : 01:21:31.016000000
    • Color primaries                          : BT.709-5, BT.1361, IEC 61966-2-4, SMPTE RP177
    • Transfer characteristics                 : BT.709-5, BT.1361
    • Matrix coefficients                      : BT.709-5, BT.1361, IEC 61966-2-4 709, SMPTE RP177
  • Audio
    • ID                                       : 2
    • Format                                   : AC-3
    • Format/Info                              : Audio Coding 3
    • Mode extension                           : CM (complete main)
    • Codec ID                                 : A_AC3
    • Duration                                 : 1h 21mn
    • Bit rate mode                            : Constant
    • Bit rate                                 : 192 Kbps
    • Channel(s)                               : 2 channels
    • Channel positions                        : Front: L R
    • Sampling rate                            : 48.0 KHz
    • Bit depth                                : 16 bits
    • Compression mode                         : Lossy
    • Delay relative to video                  : -5ms
    • Stream size                              : 112 MiB (7%)
    • Title                                    : Jpn Ac3 2.0
    • Language                                 : Japanese
    • Default                                  : Yes
    • Forced                                   : No
    • DURATION                                 : 01:21:31.040000000
  • Menu
    • 00:00:00.000                             : :Opening Credits
    • 00:02:32.402                             : :Country Pup
    • 00:18:31.319                             : :City Dogs
    • 00:28:01.847                             : :Foxy Trap
    • 00:42:38.639                             : :The Zoo
    • 00:50:14.136                             : :Return to the Fray
    • 01:01:41.656                             : :Battle
    • 01:20:09.596                             : :The Doggie March

Wan Wan Chuushingura Screenshots

Wan Wan Chuushingura
Wan wan Chuushingura
Wan wan Chuushingura